Palo alto file blocking logs

Laws of exponents worksheet pdf with answers
PUA:Win32/Zona Palo Alto Networks. Generic.ml Sophos. Not-a-virus:.Downloader.Adload.mlx Microsoft. PUA:Win32/Zona Palo Alto Networks.Webinar: Straight up Security with Nutanix and Palo Alto Networks. Learn how Palo Alto Networks and Nutanix protects your data and apps from cyber threats, including securing the lateral traffic in your network. See how Nutanix Flow and Palo Alto Networks VM-Series virtual NGFW secure your Nutanix virtual network environment. Refer to the documentation for a detailed comparison of Beats and Elastic Agent. This is a module for Palo Alto Networks PAN-OS firewall monitoring logs received over Syslog or read from a file. It currently supports messages of Traffic and Threat types. Read the quick start to learn how to configure and run modules.

Palo Alto Networks and Elastic provide an integrated solution between Cortex XSOAR (formerly Demisto) playbooks and Elastic SIEM for effective threat Visualize, search, and correlate Palo Alto Networks logs with other security-relevant information in Kibana using Elastic SIEM, dashboards...

Dec 04, 2019 · Download Palo Alto Networks PCNSE exam dump. File: Palo Alto Networks Certified Network Security Engineer.examlabs.PCNSE.2019-12-04.1e.92q.vcex Palo Alto Lab 05 – Content ID and Palo Alto Lab 06 – URL Filtering Lab 5 – Content ID The purpose of this lab is to set up the firewall to pass traffic with security policy rules and re-enforced the rules allowing or denying specific applications.

Google snake hack extension

How to configure File Blocking on a Palo Alto Networks Firewall | PAN-OS 9.1. Configure file blocking on PaloAlto Firewall. 05:37. Creating Security Policies in Palo Alto. 14:12.Palo Alto Networks and Elastic provide an integrated solution between Cortex XSOAR (formerly Demisto) playbooks and Elastic SIEM for effective threat Visualize, search, and correlate Palo Alto Networks logs with other security-relevant information in Kibana using Elastic SIEM, dashboards...File Blocking Profile on the Palo Alto Networks firewall. Data Leak Prevention Sensor on the FortiGate. The Palo Alto Networks firewall correctly identifies the four plain documents as seen in the "Data Filtering" log section. Depending on the file type a couple of different log entries are generated...Was troubleshooting a server and its access to the internet, it was having trouble downloading updates from the internet. Couldn't see anything in the data filtering logs as to what it was blocking. Once I removed the security profile from the rule, it worked. so it was blocking something , but i cant tell...

Securing Palo Alto Networks An objective, consen. Savings on training and software. Malicious Domain Blocking & Reporting. Prevent Connection to harmful web domains. View All CIS Services.

Cytochrome oxidase function

Palo Alto 4.1 Administrators Guide - Free ebook download as PDF File (.pdf), Text File (.txt) or read book online for free. Palo Alto Networks, PAN-OS, and Panorama are trademarks of Palo Alto Networks, Inc. All other trademarks are the property of their respective owners.Configuration Mode Commands Palo Alto Networks save save Saves a snapshot of the firewall configuration or the device state files from a is blocked + supernode — Set if supernode detection should be enabled + use-cache-for-identification — As of PAN-OS 5.0.2, the App-ID cache will not be...

  • Www louisianaworks net hire login
  • Thelonious Monk - Palo Alto Жанр: Bop Носитель: CD Страна-производитель диска (релиза): EU Год silent blocks : No Null samples used in CRC calculations : Yes Used interface : Native INDEX 01 00:00:00 FILE "05 - Epistrophy.wav" WAVE TRACK 05 AUDIO TITLE "Epistrophy" PERFORMER...

The cheapest way to get from San Francisco to Palo Alto costs only $3, and the quickest way takes just 37 mins. Find the travel option that best suits you. There are 5 ways to get from San Francisco to Palo Alto by train, bus, night bus, taxi or car. Select an option below to see step-by-step directions...24 pcnse palo alto file blocking profiles. 24-PCNSE Palo Alto-File Blocking ProfilesПодробнее. Tutorial: File Blocking ProfileПодробнее. How to configure File Blocking on a Palo Alto Networks Firewall | PAN-OS 9.1Подробнее. Configure file blocking on PaloAlto FirewallПодробнее[email protected]> less webserver-log error.log. webserver-log — Lists contents of the specified webserver log file (press tab for a list of log files). The CLI Reference Guide mentions the clear command but it does not apply to the web-server logs. From this Palo Alto support page, the delete...

Dramay jumong alqay 43

Securing Palo Alto Networks An objective, consen. Savings on training and software. Malicious Domain Blocking & Reporting. Prevent Connection to harmful web domains. View All CIS Services.

Extension ladder parts rung locks

Jun 26, 2020 · Having file-blocking policies in place, and securing any open Remote Desktop Protocol (RDP) ports will help prevent the malware from entering the network. We encourage ICS asset owners to review their security posture against malware, such as EKANS, that aims to disrupt ICS operations.

Compare Palo Alto Panorama to alternative Firewall Security Management Software. Reduce administrator workload and improve overall security posture with a single rule base for firewall, threat prevention, URL filtering, application awareness, user identification, file blocking, and data filtering.Thelonious Monk - Palo Alto Жанр: Bop Носитель: CD Страна-производитель диска (релиза): EU Год silent blocks : No Null samples used in CRC calculations : Yes Used interface : Native INDEX 01 00:00:00 FILE "05 - Epistrophy.wav" WAVE TRACK 05 AUDIO TITLE "Epistrophy" PERFORMER..."log at session end" will log even if the session does not end with tcp-fin. Session end reason can also be drop, deny, aged-out, tcp-rst-from-client Looks like there was a zero-day vulnerability disclosed earlier today affecting Palo Alto Global Protect. According to the documentation, it only impacts...File Blocking Profile on the Palo Alto Networks firewall. Data Leak Prevention Sensor on the FortiGate. The Palo Alto Networks firewall correctly identifies the four plain documents as seen in the "Data Filtering" log section. Depending on the file type a couple of different log entries are generated...© Palo Alto Networks, Inc. PAN-OS 7.0 Administrator's Guide • 231 Copyright © 2007-2015 Palo Alto Networks Use the Application Command The content was blocked because security policy denied access based on criteria defined in a File Blocking security profile or a Data Filtering security profile.

View deals from $79 per night, see photos and read reviews for the best Palo Alto hotels from travellers like you - then compare today's prices from up to 200 sites on Tripadvisor.Redlock is the cloud security posture manager side of the Palo Alto Prisma Cloud suite. This video covers deployment, breadth of coverage, and the So, we're using AWS for our lab environment. And so, I'll follow these three steps from Orca. The first of which is logging into your AWS account.Jun 04, 2021 · CrowdStrike rival SentinelOne files to go public months after blocking SolarWinds breach. Jun. 03, 2021 10:13 PM ET PANW, QLYS, CRWD By: ... QLYS), and Palo Alto Networks (NYSE:PANW). Mar 24, 2021 · Pcnse 8 Palo Alto Network Firewalls 8 0 Essentials App Id Pinterest Logo Logos Tech Company Logos . Palo Alto Sevenit Palo Alto Firewall Network Security Palo Alto Networks . Firesight Amp Network File Trajectory Palo Alto Firewall Hewlett Packard Networking . The Four Pillars Of Casb Data Security Cyber Security Infographic . Pin On Market ... Firewall Engineer Resume Examples & Samples. Implementation of perimeter and internal firewalls (physical and virtual) Configuration of network protection components (e.g., firewalls, Virtual Private Networks [VPNs], network Intrusion Detection Systems [IDSs]) Common attack vectors on the network layer. Learn about Palo Alto Software, one of Oregon's premier software companies and a worldwide leader in business software for entrepreneurs. Founded in 1988, Palo Alto Software provides tools, software, and expertise to entrepreneurs in more than 180 countries.How do i know if my windshield is oemNursing simulation gamesConfigure a file blocking profile on Palo alto firewall File blocking profile. Для просмотра онлайн кликните на видео ⤵. Tutorial: File Blocking ProfileПодробнее. How to configure File Blocking on a Palo Alto Networks Firewall | PAN-OS 9.1Подробнее.Refer to the documentation for a detailed comparison of Beats and Elastic Agent. This is a module for Palo Alto Networks PAN-OS firewall monitoring logs received over Syslog or read from a file. It currently supports messages of Traffic and Threat types. Read the quick start to learn how to configure and run modules. Palo Alto 4.1 Administrators Guide - Free ebook download as PDF File (.pdf), Text File (.txt) or read book online for free. Palo Alto Networks, PAN-OS, and Panorama are trademarks of Palo Alto Networks, Inc. All other trademarks are the property of their respective owners.Palo Alto Networks. o CentOS: 7 (QEMU-KVM 1.5.3 and libvirt 3.9.0) · Microsoft Hyper-V Server 2012 R2 The File Blocking, DLP (Data Loss Prevention), and The size of each log file is administrator configurable by specifying the percentage of space allocated to each log type on the hard disk.

Palo Alto 4.1 Administrators Guide - Free ebook download as PDF File (.pdf), Text File (.txt) or read book online for free. Palo Alto Networks, PAN-OS, and Panorama are trademarks of Palo Alto Networks, Inc. All other trademarks are the property of their respective owners.Jan 06, 2021 · Palo alto firewall query syntax. Scp export log url query url contains paloaltonetworks. Notice we go from the general to the specific. I want to search for source ip and destination ip. Wildcard character is allowed for URL filtering policies. For example to export the URL logs that contain the value paloaltonetworks. File Blocking Profiles allow you to identify specific file types that you want to want to block or monitor. For most traffic (including traffic on your internal network), block files that are known to carry threats or that have no real use case for upload/download. This video shows How to Configure File-Blocking in Palo Alto with LAB and also with Detailed Explanation . If you like this video give it a thumps up and subscribe my channel for more video. Have any question or suggestion put it on comment section.Designing Networks with Palo Alto Networks Firewalls Suggested Designs for Potential and Existing Customers. What's the problem with this file? Promotional spam Copyrighted material Offensive language or threatening Something else.Configure file blocking on PaloAlto Firewall music file uploaded on 2021 by MB Tech Talker. Download How to configure File Blocking on a Palo Alto Networks Firewall | PAN-OS 9.1 MP3 music file at 320kbps audio quality.Which Palo Alto Networks Next Generation Firewall URL Category Action sends a response page to the user's browser that prompts the user for the administrator-defined override password, and logs the action to the URL Filtering log? Select one: a. override b. continue c. block d. alert.

I tested the file blocking features of the Palo Alto Networks next-generation firewall and was a bit confused why several file types still passed the firewall though I set the policy to "any block". Therefore, I tested a few scenarios with the file blocking security profile and present my test results here.

Palo Alto Next Generation Firewall Administration Certification Training Course Overview. After completing this course, students will be able to configure, install, and administer Palo Alto Networks firewall. Students will also learn about: the configuration steps for the networking, security, logging...15) told the Palo Alto Rotary Club that she's had protesters outside her window for nearly two years BY BRADEN CARTWRIGHT Daily Post Staff Writer Pets In Need is ending its contract to run the Palo Alto Animal Shelter, Executive Director Al Mollica announced today (Nov.

How to fix whirlpool refrigerator ice dispenser

Silicon valley bank wire routing number

Eve online cormorant pvp fit

Gm dexos 2 5w30 specificationsJun 26, 2020 · Having file-blocking policies in place, and securing any open Remote Desktop Protocol (RDP) ports will help prevent the malware from entering the network. We encourage ICS asset owners to review their security posture against malware, such as EKANS, that aims to disrupt ICS operations. )

Palo Monitoring Authentication logs: >debug authentication on debug >tail follow yes mp-log authd.log >debug authentication off. Save an Entire Configuration for Import into Another Palo Alto Networks Device: > configure # save config to 2014-09-22_CurrentConfig.xml # exit > scp export configuration...Charlie wade chapter 3341Mar 15, 2021 · Backup of Palo Alto Networks firewalls. I'm strugglig to buid an IMC Backup adapter for Palo Alto Networks firewalls (PAN-3220 & PAN-220 with PAN-OS 9.x). I have tried to buld it with both CLI and TFTP, but without success. If someone in the community has ever try to perform this exercice, I would be gald to receive any guidance or suggestion.

Bluetooth audio receiver windows 10

Palo Alto Syslog Format and the information around it will be available here. Users can search and access all recommended login pages for free. Sending syslog from Paloalto firewalls to Graylog server ... best thehackertips.com. Graylog allows to receive SYSTEM, THREAT and TRAFFIC logs...

Unit of measure st in sapThelonious Monk - Palo Alto Жанр: Bop Носитель: CD Страна-производитель диска (релиза): EU Год silent blocks : No Null samples used in CRC calculations : Yes Used interface : Native INDEX 01 00:00:00 FILE "05 - Epistrophy.wav" WAVE TRACK 05 AUDIO TITLE "Epistrophy" PERFORMER...Sep 30, 2021 · Netscout Systems, INC., (NASDAQ: NTCT) and Palo Alto Networks announced that their fully integrated security solutions are now available to support security operations centres (SOCs) in detecting, analysing, and mitigating security threats in complex hybrid environments.

Palo Alto Networks Inc. shares gained in the extended session Thursday after the cybersecurity company topped Wall Street expectations for the quarter but raised its billings and revenue forecasts for the year slightly without raising forecast earnings per share., Palo Alto is the acclaimed debut feature from writer/director Gia Coppola. The film is a James Franco and Rabbit Bandini Productions presentation.Log in with Facebook. OR. Email address. Password. Log In. What to know. critics consensus. A promising debut for director Gia Coppola, Palo Alto compensates for its drifting plot with solid performances and beautiful cinematography.Compare Palo Alto Panorama to alternative Firewall Security Management Software. Reduce administrator workload and improve overall security posture with a single rule base for firewall, threat prevention, URL filtering, application awareness, user identification, file blocking, and data filtering.Palo Alto Lab 05 – Content ID and Palo Alto Lab 06 – URL Filtering Lab 5 – Content ID The purpose of this lab is to set up the firewall to pass traffic with security policy rules and re-enforced the rules allowing or denying specific applications. Dec 08, 2020 · Palo Alto Networks has shared our findings, including file samples and indicators of compromise, in this report with our fellow Cyber Threat Alliance members. CTA members use this intelligence to rapidly deploy protections to their customers and to systematically disrupt malicious cyber actors. Palo Alto should publicate some documentation about them. Palo Alto makes categories for us: [email protected]> show counter global filter category aho AHO match engine appid debug dataplane packet-diag aggregate-logs less dp-log pan_packet_diag.log scp export log-file management-plane...Securing Palo Alto Networks An objective, consen. Savings on training and software. Malicious Domain Blocking & Reporting. Prevent Connection to harmful web domains. View All CIS Services.Palo Alto Syslog Format and the information around it will be available here. Users can search and access all recommended login pages for free. Sending syslog from Paloalto firewalls to Graylog server ... best thehackertips.com. Graylog allows to receive SYSTEM, THREAT and TRAFFIC logs...

Samsung refrigerator ice maker freezing up lawsuit

Binary format for yahoo

Is codewars good for learningJun 04, 2021 · CrowdStrike rival SentinelOne files to go public months after blocking SolarWinds breach. Jun. 03, 2021 10:13 PM ET PANW, QLYS, CRWD By: ... QLYS), and Palo Alto Networks (NYSE:PANW).

Configuration Mode Commands Palo Alto Networks save save Saves a snapshot of the firewall configuration or the device state files from a is blocked + supernode — Set if supernode detection should be enabled + use-cache-for-identification — As of PAN-OS 5.0.2, the App-ID cache will not be...Palo Alto Networks SSO Log On. Palo Alto Networks ACE Questions amp Answers ITCertKing. ACE Exam PaloAlto Networks Scribd. may 11th, 2018 - free palo alto networks ace exam questions amp dumps 100 free ace ete files with updated and accurate questions amp answers.The Palo Alto Networks Certified Network Security Engineer (PCNSE) recognizes individuals with in-depth knowledge and abilities to design, install, configure, maintain and troubleshoot the vast majority of implementations based on the Palo Alto Networks platform.Thelonious Monk - Palo Alto Жанр: Bop Носитель: CD Страна-производитель диска (релиза): EU Год silent blocks : No Null samples used in CRC calculations : Yes Used interface : Native INDEX 01 00:00:00 FILE "05 - Epistrophy.wav" WAVE TRACK 05 AUDIO TITLE "Epistrophy" PERFORMER...Dec 08, 2020 · Palo Alto Networks has shared our findings, including file samples and indicators of compromise, in this report with our fellow Cyber Threat Alliance members. CTA members use this intelligence to rapidly deploy protections to their customers and to systematically disrupt malicious cyber actors. Mastering Palo Alto Networks Copyright © 2020 Packt Publishing All rights reserved. 9. Logging and Reporting Technical requirements Log storage and forwarding Configuring log collectors Download the example code files You can download the example code files for this book from your..."log at session end" will log even if the session does not end with tcp-fin. Session end reason can also be drop, deny, aged-out, tcp-rst-from-client Looks like there was a zero-day vulnerability disclosed earlier today affecting Palo Alto Global Protect. According to the documentation, it only impacts...Configuration Mode Commands Palo Alto Networks save save Saves a snapshot of the firewall configuration or the device state files from a is blocked + supernode — Set if supernode detection should be enabled + use-cache-for-identification — As of PAN-OS 5.0.2, the App-ID cache will not be...Configuration Mode Commands Palo Alto Networks save save Saves a snapshot of the firewall configuration or the device state files from a is blocked + supernode — Set if supernode detection should be enabled + use-cache-for-identification — As of PAN-OS 5.0.2, the App-ID cache will not be...Palo alto network. Tuesday, January 20, 2015. PALO ALTO - System Services -OKAY. Palo Alto - CLI --- Operation Mode and Configurat...

Judicial branch icivics

Safari mac cadmium meaning

Do hvac companies clean dryer vents

Sep 25, 2018 · Used mostly for installable screensavers, the scr file format was most popular in the 90s and heavily abused as a transport for malware. The power of multi-level-encoding. Before PAN-OS 7.0, the Palo Alto Networks firewall was able to decode up to two levels of encoding. Files exceeding this level would be allowed to bypass file blocking. PALO ALTO NETWORKS, INC. is responsible for this Page. During Ignite '21, Nir Zuk, Founder and CTO at Palo Alto Networks, sheds light on what Zero Trust really means, how it's the next big thing in cybersecurity, and what it does to keep your business secure.Palo Alto Networks provides sample malware files that you can use to test a WildFire configuration. Take the following steps to download the malware sample file, verify that the file is forwarded for WildFire analysis, and view the analysis results.Palo Alto Lab 05 – Content ID and Palo Alto Lab 06 – URL Filtering Lab 5 – Content ID The purpose of this lab is to set up the firewall to pass traffic with security policy rules and re-enforced the rules allowing or denying specific applications.

Ranger trailer bearing oil

Webinar: Straight up Security with Nutanix and Palo Alto Networks. Learn how Palo Alto Networks and Nutanix protects your data and apps from cyber threats, including securing the lateral traffic in your network. See how Nutanix Flow and Palo Alto Networks VM-Series virtual NGFW secure your Nutanix virtual network environment.

File Blocking Profiles allow you to identify specific file types that you want to want to block or monitor. For most traffic (including traffic on your internal network), block files that are known to carry threats or that have no real use case for upload/download. File block - will block file types data filter - will look at security numbers. You can manage them from the following location. Palo alto looks in the logs for the "authentication" sequences that were done against the LDAP AD. Then it maps the IP to the user.Firewall Engineer Resume Examples & Samples. Implementation of perimeter and internal firewalls (physical and virtual) Configuration of network protection components (e.g., firewalls, Virtual Private Networks [VPNs], network Intrusion Detection Systems [IDSs]) Common attack vectors on the network layer. I block dns and smtp both this way. In our case, the second rule is necessary because we have a Any wouldnt you just log you implicit deny rule if you want to know who has malware sending because with palo alto, its fucking simple to use evasion techniques to get traffic to bypass a restrict..."log at session end" will log even if the session does not end with tcp-fin. Session end reason can also be drop, deny, aged-out, tcp-rst-from-client Looks like there was a zero-day vulnerability disclosed earlier today affecting Palo Alto Global Protect. According to the documentation, it only impacts..., , Does timberland accept klarnaJun 13, 2020 · Download Palo Alto Networks PCNSA exam dump. File: Palo Alto Networks Certified Network Security Administrator.CertDumps.PCNSA.2020-06-13.1e.64q.vcex The cheapest way to get from San Francisco to Palo Alto costs only $3, and the quickest way takes just 37 mins. Find the travel option that best suits you. There are 5 ways to get from San Francisco to Palo Alto by train, bus, night bus, taxi or car. Select an option below to see step-by-step directions...Select log source type Syslog - Palo Alto Firewall. Enable log processing policy LogRhythm Default v2.0. This section details log processing policy updates made to AIE Rules, system reports and templates, tails, and investigations as In rule block 2: Changed Include Filter Command to Action.

How much are colored contacts

Эйзо - Palo Alto. Palo Alto.Recorded by The Staff at Palo Alto High School, Palo Alto, CA | October 27, 1968 Mastered by Seth Foster at Universal Music Mastering Studios, NY and Grand Mixer DXT Lacquers cut at Sterling Sounds Studios, NJ Engineered, Sonic Restoration and Forensic Editing by Grand Mixer DXT Tape transfer...

  • :Refer to the documentation for a detailed comparison of Beats and Elastic Agent. This is a module for Palo Alto Networks PAN-OS firewall monitoring logs received over Syslog or read from a file. It currently supports messages of Traffic and Threat types. Read the quick start to learn how to configure and run modules. Wildfire and File Blocking on Palo Alto Firewall. Palo alto wildfire block, palo alto antivirus wildfire action, palo alto file blocking ... This video will help administrator avoid accidentally forgetting to assign Security Profile groups and Log Forwarding profiles to ...Thelonious Monk - Palo Alto Жанр: Bop Носитель: CD Страна-производитель диска (релиза): EU Год silent blocks : No Null samples used in CRC calculations : Yes Used interface : Native INDEX 01 00:00:00 FILE "05 - Epistrophy.wav" WAVE TRACK 05 AUDIO TITLE "Epistrophy" PERFORMER...3. Remove the File Blocking Profile: 4. Click OK . 5. all changes. 5.26 Generate Threats 1. On the Windows desktop, open PuTTY and double-click traffic-generator . ©2017, Palo Alto Networks, Inc. Page 66 4. Select Monitor > Logs > Threat . 5. Input the following filter (severity neq informational) .Designing Networks with Palo Alto Networks Firewalls Suggested Designs for Potential and Existing Customers. What's the problem with this file? Promotional spam Copyrighted material Offensive language or threatening Something else.Palo Alto should publicate some documentation about them. Palo Alto makes categories for us: [email protected]> show counter global filter category aho AHO match engine appid debug dataplane packet-diag aggregate-logs less dp-log pan_packet_diag.log scp export log-file management-plane...
  • :Our Black Friday event will run at our E Palo Alto store and online between November 3 and December 1. Instead of a single day Black Friday event, you can relax and enjoy stress-free shopping without risking your well-being. To ensure your safety and reduce overcrowded lines in our stores, we intend...Jan 06, 2021 · Palo alto firewall query syntax. Scp export log url query url contains paloaltonetworks. Notice we go from the general to the specific. I want to search for source ip and destination ip. Wildcard character is allowed for URL filtering policies. For example to export the URL logs that contain the value paloaltonetworks.
  • Power liftgate switch off acadiaPalo Alto. Versions this guide is based on: EVE Image Name., , Unifi nvr install scriptThe PAN-OS SDK for Python (pan-os-python) is a package to help interact with Palo Alto Networks devices (including They are like building blocks to build out a conguration. There are many methods available to build Valid values are LOG_USER (default), or LOG_LOCAL0 through LOG_LOCAL7.Oregon coast webcams. 

Phogs online co op pc

The AlienApp for Palo Alto Networks PAN-OS provides a set of orchestration actions that you can use to quickly send IP addresses to the firewall. Virtual or physical device designed to defend against unauthorized access to data, resources, or a private network. A firewall’s primary purpose is to create segregation between two or more network ... Our Palo Alto office hosts Amazon Web Services, and Amazon Game Studios teams. Join us in the heart of Silicon Valley innovation, in close proximity to the Palo Alto is a beautiful gateway to the rest of the Bay Area - a train ride away from San Francisco, with the beaches of Half Moon Bay close by.Mar 24, 2021 · Pcnse 8 Palo Alto Network Firewalls 8 0 Essentials App Id Pinterest Logo Logos Tech Company Logos . Palo Alto Sevenit Palo Alto Firewall Network Security Palo Alto Networks . Firesight Amp Network File Trajectory Palo Alto Firewall Hewlett Packard Networking . The Four Pillars Of Casb Data Security Cyber Security Infographic . Pin On Market ...

  • Preparing automatic repair windows 10 lenovoLooking for a room in Palo Alto? This beautiful 9 bed, 5 bath offers the perfect space to come home to! The spacious interior features modern light Private room available at this stunning 5 bed, 3 bath home in Palo Alto. This spacious house offers a bright sunny interior and is just blocks from downtown.About Palo Alto Networks. As a global cybersecurity leader, our technologies give 60,000 customers the power to protect billions of people worldwide. Our pioneering Security Operating Platform safeguards your digital transformation with continuous innovation that combines the latest...Последние твиты от Palo Alto College (@PACPR). Official account for Palo Alto College, part of the Alamo Colleges District. *Only enrolled PAC students are eligible to receive a free turkey. To fill out a voucher, log into AlamoEXPERIENCE, & search "PAC Thanksgiving 2021" under the Forms tab...
  • 2001 chevy malibu oil pressure switch locationData Filtering Logs. Data Filtering logs display entries for the security rules that help prevent sensitive information such as credit card numbers from leaving the area that the firewall protects. See Set Up Data Filtering for information on defining Data Filtering profiles. This log type also shows information for File Blocking Profiles. Designing Networks with Palo Alto Networks Firewalls Suggested Designs for Potential and Existing Customers. What's the problem with this file? Promotional spam Copyrighted material Offensive language or threatening Something else.Jul 23, 2021 · An administrator cannot see any Traffic logs from the Palo Alto Networks NGFW in Panorama reports. The configuration problem seems to be on the firewall. Which settings, if configured incorrectly, most likelywould stop only Traffic logs from being sent from the firewall to Panorama? 15) told the Palo Alto Rotary Club that she's had protesters outside her window for nearly two years BY BRADEN CARTWRIGHT Daily Post Staff Writer Pets In Need is ending its contract to run the Palo Alto Animal Shelter, Executive Director Al Mollica announced today (Nov.
  • How much does the average shed costPalo Alto Networks Logging Tips. In order to log all web traffic in Palo Alto, go to Objects | URL Filtering | <your profile>, and set all categories to either Block or Alert (or any action other than none). This will ensure that all web activity is logged. Configure Palo Alto to send syslog messages to a syslog server such as Kiwi Syslog ... Jul 23, 2021 · An administrator cannot see any Traffic logs from the Palo Alto Networks NGFW in Panorama reports. The configuration problem seems to be on the firewall. Which settings, if configured incorrectly, most likelywould stop only Traffic logs from being sent from the firewall to Panorama? Palo Alto's products are not that different from what Check Point offers. It started with an advanced enterprise firewall product but is now offering a long list of Palo Alto also acquired a number of firms as it bolstered its expertise and product offerings. The company bought Morta Security, Cyvera...
  • Disposal of hazardous waste regulationsFeb 13, 2021 · The meaning of those icons are mentioned below. All Playbooks begins with a Section Header, which signifies the title. 1) Standard Automated Task : The arrow and the lightning bolt indicate a standard automated task. No analyst intervention is required for automated tasks. 2) Manual Task : The arrow indicates a manual standard task. Palo alto wildfire block, palo alto antivirus wildfire action, palo alto file blocking... WildFire | Palo Alto Firewall Training Network Direction Wildfire is Palo Alto's solution to analysing new files, to determine if they are a threat.Palo Alto Networks provides sample malware files that you can use to test a WildFire configuration. Take the following steps to download the malware sample file, verify that the file is forwarded for WildFire analysis, and view the analysis results.Jun 04, 2021 · CrowdStrike rival SentinelOne files to go public months after blocking SolarWinds breach. Jun. 03, 2021 10:13 PM ET PANW, QLYS, CRWD By: ... QLYS), and Palo Alto Networks (NYSE:PANW). Mar 15, 2021 · Backup of Palo Alto Networks firewalls. I'm strugglig to buid an IMC Backup adapter for Palo Alto Networks firewalls (PAN-3220 & PAN-220 with PAN-OS 9.x). I have tried to buld it with both CLI and TFTP, but without success. If someone in the community has ever try to perform this exercice, I would be gald to receive any guidance or suggestion. Jul 04, 2014 · Palo Alto Networks’ Specific Threat Mitigation Over the past few days there have been a variety of reports about the Havex RAT (Remote Access Trojan), Energetic Bear RAT, Backdoor.Oldrea, and Trojan.Karagany. Enclosed is an update with specific mitigations Palo Alto networks has added in addition to Threat Mitigation best practices to leverage the full Palo Configure a file blocking profile on Palo alto firewall File blocking profile. Для просмотра онлайн кликните на видео ⤵. Tutorial: File Blocking ProfileПодробнее. How to configure File Blocking on a Palo Alto Networks Firewall | PAN-OS 9.1Подробнее.Palo Monitoring Authentication logs: >debug authentication on debug >tail follow yes mp-log authd.log >debug authentication off. Save an Entire Configuration for Import into Another Palo Alto Networks Device: > configure # save config to 2014-09-22_CurrentConfig.xml # exit > scp export configuration...File Blocking Profile on the Palo Alto Networks firewall. Data Leak Prevention Sensor on the FortiGate. The Palo Alto Networks firewall correctly identifies the four plain documents as seen in the "Data Filtering" log section. Depending on the file type a couple of different log entries are generated...
  • PUA:Win32/Zona Palo Alto Networks. Generic.ml Sophos. Not-a-virus:.Downloader.Adload.mlx Microsoft. PUA:Win32/Zona Palo Alto Networks.Palo Alto, CA Real Estate & Homes For Sale. Order By. Newest Price (high to low) Price (low to high) Bedrooms Bathrooms.Palo alto qcow2 image - You can get the file here Note: To get the Palo-alto image, you must have a service agreement with Paloalto networks. Make sure the local machine firewall or antivirus software is not blocking the network coming out of gns3. To test that, you may disable the antivirus software...Nov 09, 2021 · Set Up File Blocking. File Blocking Profiles allow you to identify specific file types that you want to want to block or monitor. For most traffic (including traffic on your internal network) you will want to block files that are known to carry threats or that have no real use case for upload/download. Currently, these include batch files, DLLs ...

Opwdd guidance for providers

Looking for a room in Palo Alto? This beautiful 9 bed, 5 bath offers the perfect space to come home to! The spacious interior features modern light Private room available at this stunning 5 bed, 3 bath home in Palo Alto. This spacious house offers a bright sunny interior and is just blocks from downtown.A case must be opened with Palo Alto Networks support in order to upload the file. How to Open a Support Case - Palo Alto Networks. 1 hours ago Step 8: Click File A Support Case to Just Now When I checked, the file blocking was only working intermittently, refreshing attempts to download a...Sep 28, 2020 · The Palo Alto Networks security platform must install updates for application software files, signature definitions, detection heuristics, and vendor-provided rules when new releases are available in accordance with organizational configuration management policy and procedures. Palo Alto Lab 05 – Content ID and Palo Alto Lab 06 – URL Filtering Lab 5 – Content ID The purpose of this lab is to set up the firewall to pass traffic with security policy rules and re-enforced the rules allowing or denying specific applications. Securing Palo Alto Networks An objective, consen. Savings on training and software. Malicious Domain Blocking & Reporting. Prevent Connection to harmful web domains. View All CIS Services.Compare Palo Alto with Checkpoint from Checkpoint website based on NSS Labs results:Palo AltoCheck PointNSS Labs Results - Protects Against We found that the file blocking was easily fooled. For example, putting a file into a zip archive effectively hid the file type, as did changing the...City of Palo Alto, CA - SANTA CLARA County California ZIP Codes. Detailed information on every zip code in Palo Alto.

Old western style coffins

Convert buffer to file node js

Shoretel softphone ports

Expedite request approved trackitt

How do i get my unemployment back pay in alabama

Model rectifier corporation

What are spam bots on instagram

Echo show 8 live view not working

Descargar directorio cubano etecsa

Underrated guitar brands reddit